iTunes

1+1

iTunes

мы

iTunes

1

iTunes

Чернобыль

1 сезон

Ральф против интернета

Лицензия

ПШазам

Лицензия

Игра престолов

Лицензия

30
pack

ВАЖНО

!!Акция!!

Alien_RageХит недели

RePack

Resident Evil 21

ИГРА 18+

pack

RePack

Metro:Exodus

!!Акция!!

Alien_Rage

RePack

fifa19

RePack

Assassins Creed: Odyssey

RePack

NEED FOR SPEED™ PAYBACK

3 сезон

9 сезон

Бесстыжие 9 сезон

Все сериалы

все сериалы на PB.wtf

RePack

FAR CRY 5
Ребята, катастрофически не хватает 7730р. для оплаты серверов за ИЮЛЬ (всвязи с блокировками трафик упал в 3 раза), 1-2р., выручайте.
  

Поселенцы / Nybyggarna (Ян Труэль) [1972, драма, вестерн, BDRip 1080p by msltel] VO piratbit777.ga

Поселенцы через торрент piratbit777.ga

Размер: 22.65 GB | Добавлен: 2 мес. 1 д. назад | Торрент скачан:7 раз
Скачать  

20-06-2019 06:49 Поселенцы Скачать торрент  

Название: Поселенцы
Оригинальное название: Nybyggarna
Год выпуска: 1972
Страна: Швеция
Жанр: драма, вестерн
Продолжительность: 03:22:36
Перевод: закадровый одноголосый

Режиссер: Ян Труэль
В ролях: Макс фон Сюдов, Лив Ульман, Эдди Аксберг, Пьер Линдстед, Аллан Эдвалль, Моника Зеттерлунд, Ганс Альфредсон, Хальвар Бьерк, Питер Линдгрен, Пер Оскарссон, Оскар Льюнг, Линн Ульман

О фильме: Середина XIX века. Крестьянская семья Карл-Оскар и Кристина Нильссоны с детьми в поисках лучшей жизни прибывают из Швеции в Миннесоту. Они обосновываются на берегу живописного озера, начинают обрабатывать плодородную целину, строят свой первый скромный дом и терпят поначалу довольно суровую нужду. Однако постепенно их быт налаживается, а округу заселяет всё большее число шведских эмигрантов. Тем временем 18-летний брат Карла-Оскара Роберт отправляется на поиски золота в Калифорнию... Продолжение фильма «Эмигранты» (1971). Фильм основан на двух романах писателя Вильхельма Муберга — «Поселенцы» (Nybyggarna, 1956) и «Последнее письмо в Швецию» (Sista brevet till Sverige, 1959). (Википедия)



Качество: BDRip 1080p
Формат: MKV
Видео: MPEG-4 AVC, 15 Mбит/с, 1800x1080
Аудио 1: русский, AC3, 192 kbps, 2 ch, 48 kHz [закадровый одноголосый, lehachuev]
Аудио 2: шведский, DTS, 768 kbps, 1 ch, 48 kHz [оригинал]
Субтитры 1: русские (Sasha & leha)
Субтитры 2: английские
Главы/чаптеры
Общее
Уникальный идентификатор : 225680473102024289389272118616224391508 (0xA9C87A64D4DD8995A07C11CA06676154)
Полное имя : D:\Video\Поселенцы.1972.BDRip 1080p by msltel.mkv
Формат : Matroska
Версия формата : Version 4
Размер файла : 22,6 Гбайт
Продолжительность : 3 ч. 22 м.
Общий поток : 16,0 Мбит/сек
Название фильма : Rip by msltel
Дата кодирования : UTC 2019-06-20 03:29:51
Программа кодирования : mkvmerge v8.2.0 ('World of Adventure') 64bit
Библиотека кодирования : libebml v1.3.1 + libmatroska v1.4.2

Видео
Идентификатор : 1
Формат : AVC
Формат/Информация : Advanced Video Codec
Профиль формата : High@L4.1
Настройки формата : CABAC / 4 Ref Frames
Параметр CABAC формата : Да
Параметр RefFrames формата : 4 кадра
Идентификатор кодека : V_MPEG4/ISO/AVC
Продолжительность : 3 ч. 22 м.
Битрейт : 15,0 Мбит/сек
Ширина : 1800 пикселей
Высота : 1080 пикселей
Соотношение сторон : 5:3
Режим частоты кадров : Постоянный
Частота кадров : 23,976 (24000/1001) кадра/сек
Цветовое пространство : YUV
Субдискретизация насыщенности : 4:2:0
Битовая глубина : 8 бит
Тип развёртки : Прогрессивная
Бит/(Пиксели*Кадры) : 0.323
Размер потока : 21,3 Гбайт (94%)
Библиотека кодирования : x264 core 157 r2935 545de2f
Настройки программы : cabac=1 / ref=4 / deblock=1:-2:-2 / analyse=0x3:0x113 / me=umh / subme=11 / psy=1 / psy_rd=1.00:0.15 / mixed_ref=1 / me_range=32 / chroma_me=1 / trellis=2 / 8x8dct=1 / cqm=0 / deadzone=21,11 / fast_pskip=0 / chroma_qp_offset=-3 / threads=6 / lookahead_threads=1 / sliced_threads=0 / nr=0 / decimate=1 / interlaced=0 / bluray_compat=0 / constrained_intra=0 / bframes=9 / b_pyramid=2 / b_adapt=2 / b_bias=0 / direct=1 / weightb=1 / open_gop=0 / weightp=2 / keyint=230 / keyint_min=23 / scenecut=40 / intra_refresh=0 / rc_lookahead=40 / rc=crf / mbtree=1 / crf=20.7 / qcomp=0.60 / qpmin=0 / qpmax=69 / qpstep=4 / vbv_maxrate=50000 / vbv_bufsize=62500 / crf_max=0.0 / nal_hrd=none / filler=0 / ip_ratio=1.40 / aq=1:1.00
Язык : Swedish
Default : Да
Forced : Нет

Аудио #1
Идентификатор : 2
Формат : AC-3
Формат/Информация : Audio Coding 3
Коммерческое название : Dolby Digital
Идентификатор кодека : A_AC3
Продолжительность : 3 ч. 22 м.
Вид битрейта : Постоянный
Битрейт : 192 Кбит/сек
Каналы : 2 канала
ChannelLayout : L R
Частота : 48,0 КГц
Частота кадров : 31,250 кадров/сек (1536 SPF)
Битовая глубина : 16 бит
Метод сжатия : С потерями
Размер потока : 278 Мбайт (1%)
Заголовок : lehachuev
Язык : Russian
ServiceKind/String : Complete Main
Default : Да
Forced : Нет

Аудио #2
Идентификатор : 3
Формат : DTS
Формат/Информация : Digital Theater Systems
Идентификатор кодека : A_DTS
Продолжительность : 3 ч. 22 м.
Вид битрейта : Постоянный
Битрейт : 768 Кбит/сек
Каналы : 1 канал
ChannelLayout : C
Частота : 48,0 КГц
Частота кадров : 93,750 кадра/сек (512 SPF)
Битовая глубина : 24 бит
Метод сжатия : С потерями
Размер потока : 1,09 Гбайт (5%)
Заголовок : original
Язык : Swedish
Default : Нет
Forced : Нет

Текст #1
Идентификатор : 4
Формат : UTF-8
Идентификатор кодека : S_TEXT/UTF8
Идентификатор кодека/Информация : UTF-8 Plain Text
Продолжительность : 3 ч. 19 м.
Битрейт : 41 бит/сек
ElementCount : 964
Размер потока : 60,9 Кбайт (0%)
Заголовок : русские Sasha & leha
Язык : Russian
Default : Нет
Forced : Нет

Текст #2
Идентификатор : 5
Формат : UTF-8
Идентификатор кодека : S_TEXT/UTF8
Идентификатор кодека/Информация : UTF-8 Plain Text
Продолжительность : 3 ч. 19 м.
Битрейт : 24 бит/сек
ElementCount : 1180
Размер потока : 35,4 Кбайт (0%)
Заголовок : английские
Язык : English
Default : Нет
Forced : Нет

Меню
00:00:00.000 : en:00:00:00.000
00:15:17.583 : en:00:15:17.583
00:31:10.869 : en:00:31:10.869
00:42:20.830 : en:00:42:20.830
00:48:04.090 : en:00:48:04.090
00:54:09.538 : en:00:54:09.538
01:03:02.445 : en:01:03:02.445
01:13:15.266 : en:01:13:15.266
01:21:25.881 : en:01:21:25.881
01:28:40.148 : en:01:28:40.148
01:30:25.462 : en:01:30:25.462
01:43:22.822 : en:01:43:22.822
01:55:16.201 : en:01:55:16.201
02:06:28.748 : en:02:06:28.748
02:17:50.262 : en:02:17:50.262
02:26:40.083 : en:02:26:40.083
02:36:35.261 : en:02:36:35.261
02:46:24.183 : en:02:46:24.183
02:56:30.538 : en:02:56:30.538
03:07:11.595 : en:03:07:11.595
03:10:49.980 : en:03:10:49.980
piratbit777.ga



Скачать Поселенцы через торрент https://d.radikal.ru/d13/1906/60/d659f10cedcc.jpg Скачать фильм Поселенцы через торрент бесплантно в хорошем качестве О фильме: Середина XIX века. Крестьянская семья Карл-Оскар и Кристина Нильссоны с детьми в поисках лучшей жизни прибывают из Швеции в ... 9.3 10 3
Info! Золотая раздача, скачанное не засчитывается.
Торрент: Зарегистрирован [2019-06-20 06:49] · скачан: 7 раз
Статус: √ проверено
Размер: 22.65 GB
Как cкачать? Как скачать Поселенцы через торрент | qTorrent

% Раздел Тема Автор DL S | L
Фильмы [HD 720p, 1080p] (Звук Cam, VO, DVO) [ 8.19 GB ] Поселенцы / Nybyggarna [1972 BDRip 720p by msltel] VO msltel Скачать
2 | 0


>> Регистрируемся здесь <<






Отзывы и комментарии о схеме читаем и пишем здесь: ---> Отзывы и комментарии о схеме

Новые благодарочки в телеграм довольных пользователей:
скриншот   скриншот   скриншот   скриншот   скриншот
    Дорогой пользователь! Огромная просьба, поблагодарите релизера, оцените раздачу и оставьте свои комментарий, если Вы скачали Поселенцы через торрент бесплатно! Внесите свою лепту в развитие PiratBit!
    Комментировать посты могут только пользователи прошедшие не сложную регистрацию
    Показать сообщения:    

    Поселенцы через торрент
    Скачать бесплатно Поселенцы
    Поселенцы скачать торрент
    Поселенцы смотреть онлайн
    Cкачать фильм Поселенцы бесплатно
    Поселенцы скачать торрент в хорошем качестве
    Поселенцы смотреть онлайн бесплатно в хорошем качестве


    Вы не можете начинать темы
    Вы не можете отвечать на сообщения
    Вы не можете редактировать свои сообщения
    Вы не можете удалять свои сообщения
    Вы не можете голосовать в опросах
    Вы не можете прикреплять файлы к сообщениям
    Вы можете скачивать файлы