iTunes

1+1

iTunes

мы

iTunes

1

iTunes

Чернобыль

1 сезон

Ральф против интернета

Лицензия

ПШазам

Лицензия

Игра престолов

Лицензия

30
pack

ВАЖНО

!!Акция!!

Alien_RageХит недели

RePack

Resident Evil 21

ИГРА 18+

pack

RePack

Metro:Exodus

!!Акция!!

Alien_Rage

RePack

fifa19

RePack

Assassins Creed: Odyssey

RePack

NEED FOR SPEED™ PAYBACK

3 сезон

9 сезон

Бесстыжие 9 сезон

Все сериалы

все сериалы на PB.wtf

RePack

FAR CRY 5
Ребята, катастрофически не хватает 7730р. для оплаты серверов за ИЮЛЬ (всвязи с блокировками трафик упал в 3 раза), 1-2р., выручайте.
  

Том и Джерри: Полет на Марс / Tom and Jerry Blast Off to Mars! (Билл Копп) [2005, Мультфильм, фантастика, комедия, семейный, BDRip 1080p] MVO+2xAVO piratbit777.ga

Том и Джерри: Полет на Марс через торрент piratbit777.ga

Раздают: 10 [ 0 KB/s ]
Размер: 5.78 GB | Добавлен: 20 д. назад | Торрент скачан:99 раз
Скачать  

28-07-2019 21:12 Том и Джерри: Полет на Марс Скачать торрент  

Том и Джерри: Полет на Марс / Tom and Jerry Blast Off to Mars!
Год выпуска: 2005
Страна: США
Жанр: Мультфильм, фантастика, комедия, семейный
Продолжительность: 01:14:27
Перевод: Профессиональный (многоголосый), авторский (одноголосый, закадровый)
Субтитры: Czech, English, French, Spanish (Castilian), Spanish (Latin American)

Режиссер: Билл Копп

rating

В ролях: Джефф Беннетт, Кори Бертон, Кэтрин Фиоре, Брэд Гэррет, Джесс Харнелл, Том Кенни, Билл Копп, Роб Полсен, Фрэнк Уэлкер, Билли Уэст

Описание: Выходит, что для своих погонь и проказ легендарные Том и Джерри уже использовали все возможные места на нашей старушке-Земле; и теперь забавные зверушки решают совершить вояж наМарс, чтобы повеселиться там от души! Вот, правда, марсиане оказались мелковаты: крошечные гуманоиды посчитали Тома свирепым галактическим монстром и решили расправиться с беднягой.
Марс атакует! А в это время маленький хитрый Джерри был по ошибке признан возвратившимся после долгого отсутствия космическим вождем марсиан. Смогут ли мышонок и кот отложить на время свои разногласия, чтобы спасти Землю от инопланетного вторжения? Ведь для этого потребуются все девять жизней кота Тома!

Качество: BDRip 1080p
Формат: MKV

Видео: 1920x1080 (16:9), 23.976 fps, 7 290 Kbps
Аудио#1: Russian: 48 kHz, AC3, 3/2 (L,C,R,l,r) + LFE ch, ~384 kbps | Многоголосый закадровый
Аудио#2: Russian: 48 kHz, AC3, 2/0 (L,R) ch, ~192.00 kbps | Одноголосый закадровый, С.Визгунов
Аудио#3: Russian: 48 kHz, DTS, 3/2 (L,C,R,l,r) + LFE ch, ~1509 kbps | Одноголосый закадровый, В.Белов
Аудио#4: English: 48 kHz, DTS, 3/2 (L,C,R,l,r) + LFE ch, ~1509 kbps | Оригинал
скриншот  скриншот  скриншот  скриншот  скриншот  

Общее
Уникальный идентификатор : 226409970148302410023765880111032019616 (0xAA54F96009397F658E0BE92C5AD5AAA0)
Полное имя : D:192.168.1.30Том и Джерри. Полет на Марс .2005.1080p.BluRay.3xRus.Eng.HDCLUB.mkv
Формат : Matroska
Версия формата : Version 2
Размер файла : 5,78 Гбайт
Продолжительность : 1 ч. 14 м.
Общий поток : 11,1 Мбит/сек
Название фильма : Tom and Jerry Blast Off to Mars! (2005) - Release for HDCLUB
Дата кодирования : UTC 2013-11-09 11:33:30
Программа кодирования : mkvmerge v5.7.0 ('The Whirlwind') built on Jul 8 2012 20:08:51
Библиотека кодирования : libebml v1.2.3 + libmatroska v1.3.0

Видео
Идентификатор : 1
Формат : AVC
Формат/Информация : Advanced Video Codec
Профиль формата : High@L4.1
Параметр CABAC формата : Да
Параметр ReFrames формата : 4 кадра
Идентификатор кодека : V_MPEG4/ISO/AVC
Продолжительность : 1 ч. 14 м.
Битрейт : 7291 Кбит/сек
Ширина : 1920 пикселей
Высота : 1080 пикселей
Соотношение сторон : 16:9
Режим частоты кадров : Постоянный
Частота кадров : 23,976 (24000/1001) кадра/сек
Цветовое пространство : YUV
Субдискретизация насыщенности : 4:2:0
Битовая глубина : 8 бит
Тип развёртки : Прогрессивная
Бит/(Пиксели*Кадры) : 0.147
Размер потока : 3,79 Гбайт (66%)
Библиотека кодирования : x264 core 133 r2334 a3ac64b
Настройки программы : cabac=1 / ref=4 / deblock=1:-2:-2 / analyse=0x3:0x133 / me=tesa / subme=10 / psy=1 / psy_rd=0.70:0.00 / mixed_ref=1 / me_range=24 / chroma_me=1 / trellis=2 / 8x8dct=1 / cqm=0 / deadzone=21,11 / fast_pskip=0 / chroma_qp_offset=-2 / threads=12 / lookahead_threads=3 / sliced_threads=0 / nr=0 / decimate=0 / interlaced=0 / bluray_compat=0 / constrained_intra=0 / bframes=10 / b_pyramid=2 / b_adapt=2 / b_bias=0 / direct=3 / weightb=1 / open_gop=0 / weightp=2 / keyint=250 / keyint_min=23 / scenecut=40 / intra_refresh=0 / rc_lookahead=60 / rc=crf / mbtree=0 / crf=14.0 / qcomp=0.75 / qpmin=0 / qpmax=69 / qpstep=4 / vbv_maxrate=50000 / vbv_bufsize=62500 / crf_max=0.0 / nal_hrd=none / ip_ratio=1.40 / pb_ratio=1.30 / aq=1:0.60
Язык : English
Default : Да
Forced : Нет

Аудио #1
Идентификатор : 2
Формат : AC-3
Формат/Информация : Audio Coding 3
Расширение режима : CM (complete main)
Параметр Endianness формата : Big
Идентификатор кодека : A_AC3
Продолжительность : 1 ч. 14 м.
Вид битрейта : Постоянный
Битрейт : 384 Кбит/сек
Каналы : 6 каналов
Расположение каналов : Front: L C R, Side: L R, LFE
Частота : 48,0 КГц
Частота кадров : 31,250 кадров/сек (1536 spf)
Метод сжатия : С потерями
Размер потока : 205 Мбайт (3%)
Заголовок : |Многоголосый закадровый|
Язык : Russian
Default : Да
Forced : Нет

Аудио #2
Идентификатор : 3
Формат : AC-3
Формат/Информация : Audio Coding 3
Расширение режима : CM (complete main)
Параметр Endianness формата : Big
Идентификатор кодека : A_AC3
Продолжительность : 1 ч. 14 м.
Вид битрейта : Постоянный
Битрейт : 192 Кбит/сек
Каналы : 2 канала
Расположение каналов : Front: L R
Частота : 48,0 КГц
Частота кадров : 31,250 кадров/сек (1536 spf)
Метод сжатия : С потерями
Размер потока : 102 Мбайт (2%)
Заголовок : |Одноголосый закадровый, С.Визгуно
Язык : Russian
Default : Нет
Forced : Нет

Аудио #3
Идентификатор : 4
Формат : DTS
Формат/Информация : Digital Theater Systems
Режим : 16
Параметр Endianness формата : Big
Идентификатор кодека : A_DTS
Продолжительность : 1 ч. 14 м.
Вид битрейта : Постоянный
Битрейт : 1509 Кбит/сек
Каналы : 6 каналов
Расположение каналов : Front: L C R, Side: L R, LFE
Частота : 48,0 КГц
Частота кадров : 93,750 кадра/сек (512 spf)
Битовая глубина : 24 бит
Метод сжатия : С потерями
Размер потока : 804 Мбайт (14%)
Заголовок : |Одноголосый закадровый, В.Белов|
Язык : Russian
Default : Нет
Forced : Нет

Аудио #4
Идентификатор : 5
Формат : DTS
Формат/Информация : Digital Theater Systems
Режим : 16
Параметр Endianness формата : Big
Идентификатор кодека : A_DTS
Продолжительность : 1 ч. 14 м.
Вид битрейта : Постоянный
Битрейт : 1509 Кбит/сек
Каналы : 6 каналов
Расположение каналов : Front: L C R, Side: L R, LFE
Частота : 48,0 КГц
Частота кадров : 93,750 кадра/сек (512 spf)
Битовая глубина : 24 бит
Метод сжатия : С потерями
Размер потока : 804 Мбайт (14%)
Язык : English
Default : Нет
Forced : Нет

Текст #1
Идентификатор : 6
Формат : UTF-8
Идентификатор кодека : S_TEXT/UTF8
Идентификатор кодека/Информация : UTF-8 Plain Text
Язык : Czech
Default : Нет
Forced : Нет

Текст #2
Идентификатор : 7
Формат : UTF-8
Идентификатор кодека : S_TEXT/UTF8
Идентификатор кодека/Информация : UTF-8 Plain Text
Язык : English
Default : Нет
Forced : Нет

Текст #3
Идентификатор : 8
Формат : UTF-8
Идентификатор кодека : S_TEXT/UTF8
Идентификатор кодека/Информация : UTF-8 Plain Text
Язык : French
Default : Нет
Forced : Нет

Текст #4
Идентификатор : 9
Формат : UTF-8
Идентификатор кодека : S_TEXT/UTF8
Идентификатор кодека/Информация : UTF-8 Plain Text
Заголовок : Castilian
Язык : Spanish
Default : Нет
Forced : Нет

Текст #5
Идентификатор : 10
Формат : UTF-8
Идентификатор кодека : S_TEXT/UTF8
Идентификатор кодека/Информация : UTF-8 Plain Text
Заголовок : Latin American
Язык : Spanish
Default : Нет
Forced : Нет

Меню
00:00:00.000 : en:Credits
00:01:18.912 : en:Home Wreckers
00:07:35.747 : en:Little Green Men
00:13:27.265 : en:Mouse in the House
00:19:07.772 : en:High Flyers
00:23:11.223 : en:Out of Control
00:29:35.941 : en:Mars Mellow
00:35:06.062 : en:Survival Rivals
00:39:06.803 : en:The Great Gloop
00:43:47.708 : en:King Thing
00:47:19.628 : en:Alien Invaders
00:53:16.318 : en:Lousy Drivers
00:56:53.744 : en:Takeover to Makeover
01:02:05.472 : en:Giant Vacuum Cleaner
01:09:49.977 : en:Earth's Heroes, Not Spike's
01:11:42.131 : en:End Credits

piratbit777.ga



Скачать Том и Джерри: Полет на Марс через торрент http://s013.radikal.ru/i323/1601/f1/d421792578df.jpg Скачать фильм Том и Джерри: Полет на Марс через торрент бесплантно в хорошем качестве Описание: Выходит, что для своих погонь и проказ легендарные Том и Джерри уже использовали все возможные места на нашей старушке-Земле; и ... 9.9 10 7
Торрент: Зарегистрирован [2019-07-28 21:12] · скачан: 99 раз
Статус: √ проверено
Размер: 5.78 GB
Как cкачать? Как скачать Том и Джерри: Полет на Марс через торрент | qTorrent


>> Регистрируемся здесь <<






Отзывы и комментарии о схеме читаем и пишем здесь: ---> Отзывы и комментарии о схеме

Новые благодарочки в телеграм довольных пользователей:
скриншот   скриншот   скриншот   скриншот   скриншот
    Дорогой пользователь! Огромная просьба, поблагодарите релизера, оцените раздачу и оставьте свои комментарий, если Вы скачали Том и Джерри: Полет на Марс через торрент бесплатно! Внесите свою лепту в развитие PiratBit!
    Комментировать посты могут только пользователи прошедшие не сложную регистрацию
    Показать сообщения:    

    Том и Джерри: Полет на Марс через торрент
    Скачать бесплатно Том и Джерри: Полет на Марс
    Том и Джерри: Полет на Марс скачать торрент
    Том и Джерри: Полет на Марс смотреть онлайн
    Cкачать фильм Том и Джерри: Полет на Марс бесплатно
    Том и Джерри: Полет на Марс скачать торрент в хорошем качестве
    Том и Джерри: Полет на Марс смотреть онлайн бесплатно в хорошем качестве


    Вы не можете начинать темы
    Вы не можете отвечать на сообщения
    Вы не можете редактировать свои сообщения
    Вы не можете удалять свои сообщения
    Вы не можете голосовать в опросах
    Вы не можете прикреплять файлы к сообщениям
    Вы можете скачивать файлы