iTunes

1+1

iTunes

мы

iTunes

1

iTunes

Чернобыль

iTunes

Ральф против интернета

Лицензия

ПШазам

Лицензия

Игра престолов

Лицензия

30
pack

ВАЖНО

!!Акция!!

Alien_RageХит недели

RePack

Resident Evil 21

ИГРА 18+

pack

RePack

Metro:Exodus

!!Акция!!

Alien_Rage

RePack

fifa19

RePack

Assassins Creed: Odyssey

RePack

NEED FOR SPEED™ PAYBACK

3 сезон

9 сезон

Бесстыжие 9 сезон

Все сериалы

все сериалы на PB.wtf

RePack

FAR CRY 5
Ребята, катастрофически не хватает 7730р. для оплаты серверов за ИЮЛЬ (всвязи с блокировками трафик упал в 3 раза), 1-2р., выручайте.
  

Пацаны / The Boys / Сезон: 1 / Серии: 1-8 из 8 (Филип Сгриккиа, Дэниэл Эттиэс, Дженнифер Фанг) [2019, фантастика, боевик, комедия, криминал, WEB-DLRip] MVO [LostFilm] piratbit777.ga

Пацаны через торрент piratbit777.ga

Раздают: 3 [ 146 KB/s ] Качают: 5 [ 0 KB/s ]
Размер: 8.58 GB | Добавлен: 4 д. назад | Торрент скачан:35 раз
Скачать  

30-07-2019 16:44 Пацаны Скачать торрент  

Пацаны / The Boys Год выпуска: 2019
Страна: США
Жанр: фантастика, боевик, комедия, криминал
Продолжительность: ~ 01:00:00
Перевод: Профессиональный (многоголосый закадровый) | LostFilm
Субтитры: Русские (Аmazon), английские (SDH)

Режиссёр: Филип Сгриккиа, Дэниэл Эттиэс, Дженнифер Фанг

В ролях: Карл Урбан, Чейс Кроуфорд, Доминик МакЭллигот, Нэйтан Митчелл, Эрин Мориарти, Джек Куэйд, Элизабет Шу, Энтони Старр, Джесси Ашер, Лас Алонсо

Описание: Действие сериала разворачивается в мире, где существуют супергерои. Именно они являются настоящими звездами. Их все знают и обожают. Но за идеальным фасадом скрывается гораздо более мрачный мир наркотиков и секса, а большинство героев — в жизни не самые приятные люди. Для контроля за супергероями ЦРУ создает специальный отряд, неофициально известный как «Пацаны», суровые члены которого всегда готовы поставить зазнавшегося героя на место самым жестоким способом.



Исходник: The.Boys.2019.S01.1080p.AMZN.WEBDL.DDP5.1.x264-NTG
Качество: WEB-DLRip
Формат: AVI

Видео: XviD, 720x304, 23,976 fps, ~ 1999 kbps
Аудио 1: 48 kHz, AC3 2 ch, ~ 192 kbps|LostFilm|
Аудио 2: 48 kHz, AC3 6 ch, ~ 384 kbps


Реклама: Отсутствует
Format : AVI
Format/Info : Audio Video Interleave
File size : 1.09 GiB
Duration : 1h 0mn
Overall bit rate : 2 590 Kbps
Movie name : Пацаны 1х01: Такая игра
Director : Бёдвар (WEB-DLRip)
Writing application : VirtualDubModRus 1.5.10.2 (build 2542/release)
Comment : 30.07.2019

Video
ID : 0
Format : MPEG-4 Visual
Format profile : Advanced Simple@L5
Format settings, BVOP : 1
Format settings, QPel : No
Format settings, GMC : No warppoints
Format settings, Matrix : Default (MPEG)
Codec ID : XVID
Codec ID/Hint : XviD
Duration : 1h 0mn
Bit rate : 2 000 Kbps
Width : 720 pixels
Height : 304 pixels
Display aspect ratio : 2.35:1
Frame rate : 23.976 (24000/1001) fps
Color space : YUV
Chroma subsampling : 4:2:0
Bit depth : 8 bits
Scan type : Progressive
Compression mode : Lossy
Bits/(Pixel*Frame) : 0.381
Stream size : 861 MiB (77%)
Writing library : XviD 67

Audio #1
ID : 1
Format : AC-3
Format/Info : Audio Coding 3
Mode extension : CM (complete main)
Format settings, Endianness : Big
Codec ID : 2000
Duration : 1h 0mn
Bit rate mode : Constant
Bit rate : 192 Kbps
Channel(s) : 2 channels
Channel positions : Front: L R
Sampling rate : 48.0 KHz
Frame rate : 31.250 fps (1536 spf)
Compression mode : Lossy
Stream size : 82.6 MiB (7%)
Alignment : Split accross interleaves
Interleave, duration : 42 ms (1.00 video frame)
Interleave, preload duratio : 500 ms

Audio #2
ID : 2
Format : AC-3
Format/Info : Audio Coding 3
Mode extension : CM (complete main)
Format settings, Endianness : Big
Codec ID : 2000
Duration : 1h 0mn
Bit rate mode : Constant
Bit rate : 384 Kbps
Channel(s) : 6 channels
Channel positions : Front: L C R, Side: L R, LFE
Sampling rate : 48.0 KHz
Frame rate : 31.250 fps (1536 spf)
Compression mode : Lossy
Stream size : 165 MiB (15%)
Alignment : Split accross interleaves
Interleave, duration : 42 ms (1.00 video frame)
Interleave, preload duratio : 500 ms
скриншот  скриншот  скриншот  скриншот  
Внимание! Раздача ведётся путём добавления новых серий; при каждом добавлении создаётся новый торрент. Чтобы начать докачку новой серии,пользователям необходимо сделать следующее:
(1) остановить скачивание,
(2) удалить старый торрент у себя из клиента (старые серии удалять не надо),
(3) скачать новый торрент и запустить его у себя в клиенте вместо старого, при этом указать клиенту путь в старую папку куда и должнопроисходить скачивание новых серий.

Ваш клиент при этом должен произвести хеширование (проверку) старой папки (если не производит сам - помогите ему сделать это), и будет докачивать только те серии
которых у вас ещё нет. Старые серии при этом не удаляются, а продолжают раздаваться!

Eсли вы уже удалили старые серии, то предотвратить повторную закачку старых серий можно, отжав галочку в соответствующих местах при запуске нового торрента.

По возможности, желательно не удалять старые серии как можно дольше чтобы релизёр не столько продолжал раздавать старые серии, а смог сконцентрироваться на новых.
piratbit777.ga



Скачать Пацаны через торрент https://i4.imageban.ru/out/2019/08/02/d2fd7622d1ed3de95e4bd9a03c8eeb95.png Скачать фильм Пацаны через торрент бесплантно в хорошем качестве Описание: Действие сериала разворачивается в мире, где существуют супергерои. Именно они являются настоящими звездами. Их все знают и ... 8.9 10 8
Торрент: Зарегистрирован [2019-08-20 20:38] · скачан: 35 раз
Статус: √ проверено
Размер: 8.58 GB
Как cкачать? Как скачать Пацаны через торрент | qTorrent

% Раздел Тема Автор DL S | L
Зарубежные сериалы [ 29.06 GB ] Пацаны / The Boys / Сезон: 1 / Серии: 1-8 из 8 [2019 WEB-DL 1080p] DVO [Кубик в кубе] bober100 Скачать
7 | 17
Зарубежные сериалы [ 7.54 GB ] Пацаны / The Boys / Сезон: 1 / Серии: 1-8 из 8 [2019 WEB-DLRip-AVC] 3xMVO bober100 Скачать
6 | 0
Зарубежные сериалы [ 29.7 GB ] Пацаны / The Boys / Сезон: 1 / Серии: 1-8 из 8 [2019 WEB-DL 1080p] MVO [Lostfilm] bober100 Скачать
3 | 3
Зарубежные сериалы [ 7.55 GB ] Пацаны / The Boys / Сезон: 1 / Серии: 1-8 из 8 [2019 WEB-DLRip-AVC] MVO [HDRezka Studio] - ExKinoRay Enigma2010 Скачать
95 | 36
Зарубежные сериалы [ 28.85 GB ] Пацаны / The Boys / Сезон: 1 / Серии: 1-8 из 8 [2019 WEB-DL 1080p] MVO [TVShows] bober100 Скачать
2 | 0
Зарубежные сериалы [ 52.83 GB ] Пацаны / The Boys / Сезон: 1 / Серии: 1-8 из 8 [2019 UHD WEBRip 2160p] MVO [AlexFilm] +DVO [Кубик в Кубе] bober100 Скачать
5 | 4
Зарубежные сериалы [ 102.33 GB ] Пацаны / The Boys / Сезон: 1 / Серии: 1-8 из 8 [2019 UHD WEBRip 2160p] [SDR] MVO [AlexFilm] bober100 Скачать
3 | 1


Последний раз редактировалось: bober100 (2019-08-20 20:38), всего редактировалось 4 раз(а)


>> Регистрируемся здесь <<






Отзывы и комментарии о схеме читаем и пишем здесь: ---> Отзывы и комментарии о схеме

Новые благодарочки в телеграм довольных пользователей:
скриншот   скриншот   скриншот   скриншот   скриншот

06-08-2019 15:43 Пацаны Скачать торрент  

Отличный сериал!!! piratbit777.ga



    Дорогой пользователь! Огромная просьба, поблагодарите релизера, оцените раздачу и оставьте свои комментарий, если Вы скачали Пацаны через торрент бесплатно! Внесите свою лепту в развитие PiratBit!
    Комментировать посты могут только пользователи прошедшие не сложную регистрацию
    Показать сообщения:    

    Пацаны через торрент
    Скачать бесплатно Пацаны
    Пацаны скачать торрент
    Пацаны смотреть онлайн
    Cкачать фильм Пацаны бесплатно
    Пацаны скачать торрент в хорошем качестве
    Пацаны смотреть онлайн бесплатно в хорошем качестве


    Вы не можете начинать темы
    Вы не можете отвечать на сообщения
    Вы не можете редактировать свои сообщения
    Вы не можете удалять свои сообщения
    Вы не можете голосовать в опросах
    Вы не можете прикреплять файлы к сообщениям
    Вы можете скачивать файлы