iTunes

1+1

iTunes

мы

iTunes

1

iTunes

Чернобыль

1 сезон

Ральф против интернета

Лицензия

ПШазам

Лицензия

Игра престолов

Лицензия

30
pack

ВАЖНО

!!Акция!!

Alien_RageХит недели

RePack

Resident Evil 21

ИГРА 18+

pack

RePack

Metro:Exodus

!!Акция!!

Alien_Rage

RePack

fifa19

RePack

Assassins Creed: Odyssey

RePack

NEED FOR SPEED™ PAYBACK

3 сезон

9 сезон

Бесстыжие 9 сезон

Все сериалы

все сериалы на PB.wtf

RePack

FAR CRY 5
Ребята, катастрофически не хватает 7730р. для оплаты серверов за ИЮЛЬ (всвязи с блокировками трафик упал в 3 раза), 1-2р., выручайте.
  

Каннибалы и установщики напольных покрытий / Cannibals and Carpet Fitters (Джеймс Буш) [2017, ужасы, комедия, BDRip 1080p] DVO [HiWayGrope] piratbit777.ga

Каннибалы и установщики напольных покрытий через торрент piratbit777.ga

Раздают: 3 [ 0 KB/s ]
Размер: 6.66 GB | Добавлен: 19 д. назад | Торрент скачан:39 раз
Скачать  

31-07-2019 03:26 Каннибалы и установщики напольных покрытий Скачать торрент  

Каннибалы и установщики напольных покрытий / Cannibals and Carpet Fitters
Год выпуска: 2017
Страна: Великобритания
Жанр: ужасы, комедия
Продолжительность: 01:22:35
Перевод: Любительский (двухголосый) | HiWayGrope
Субтитры: английские (full)

Режиссер: Джеймс Буш

rating


В ролях: Даррен Шон Энрайт, Ричард Ли О’Доннелл, Зара Питиан, Кристофер Уайтло, Доминик Холмс, Джессика Джейн Клемент, Алекс Зейн, Фил Мартин

Описание: Группа рабочих по установке напольных покрытий отправляется на выполнение заказа в отдалённый особняк. По прибытии ремонтники обнаруживают, что заказывали на самом деле не ковры, а их самих — в доме живёт семья каннибалов, и парни рискуют стать сегодняшним ужином. Но британских рабочих с инструментами так просто не возьмёшь, и желающим их съесть придётся очень сильно постараться...

Качество: BDRip 1080p
Формат: MKV

Видео: 1920x824 (2.35:1), 24.000 fps, MPEG-4 AVC ~9 861 kbps avg
Аудио#1: 48.0 kHz, AC3 Dolby Digital, 2/0 (L,R) ch, ~192 kbps | RUS / HiWayGrope
Аудио#2: 48.0 kHz, Digital Theater Systems, 3/2 (L,C,R,l,r) + LFE ch, ~1509 kbps | ENG
скриншот  скриншот  скриншот  

General
Unique ID : 309663965409772174000195895688070281169 (0xE8F71C411466EBA2BF5989B5E135B7D1)
Complete name : Cannibals.And.Carpet.Fitters.2017.BDRip.1080p.mkv
Format : Matroska
Format version : Version 4 / Version 2
File size : 6.66 GiB
Duration : 1 h 22 min
Overall bit rate : 11.6 Mb/s
Encoded date : UTC 2019-07-30 07:56:04
Writing application : mkvmerge v20.0.0 ('I Am The Sun') 64-bit
Writing library : libebml v1.3.5 + libmatroska v1.4.8

Video
ID : 1
Format : AVC
Format/Info : Advanced Video Codec
Format profile : High@L4.1
Format settings : CABAC / 5 Ref Frames
Format settings, CABAC : Yes
Format settings, RefFrames : 5 frames
Codec ID : V_MPEG4/ISO/AVC
Duration : 1 h 22 min
Bit rate : 9 861 kb/s
Width : 1 920 pixels
Height : 824 pixels
Display aspect ratio : 2.35:1
Frame rate mode : Constant
Frame rate : 24.000 FPS
Color space : YUV
Chroma subsampling : 4:2:0
Bit depth : 8 bits
Scan type : Progressive
Bits/(Pixel*Frame) : 0.260
Stream size : 5.68 GiB (85%)
Writing library : x264 core 157 r2969 d4099dd
Encoding settings : cabac=1 / ref=5 / deblock=1:0:0 / analyse=0x3:0x133 / me=umh / subme=7 / psy=1 / psy_rd=1.00:0.00 / mixed_ref=1 / me_range=16 / chroma_me=1 / trellis=2 / 8x8dct=1 / cqm=0 / deadzone=21,11 / fast_pskip=0 / chroma_qp_offset=-2 / threads=18 / lookahead_threads=3 / sliced_threads=0 / nr=0 / decimate=1 / interlaced=0 / bluray_compat=0 / constrained_intra=0 / bframes=3 / b_pyramid=2 / b_adapt=1 / b_bias=0 / direct=3 / weightb=1 / open_gop=0 / weightp=2 / keyint=250 / keyint_min=24 / scenecut=40 / intra_refresh=0 / rc_lookahead=50 / rc=2pass / mbtree=1 / bitrate=9861 / ratetol=1.0 / qcomp=0.60 / qpmin=0 / qpmax=69 / qpstep=4 / cplxblur=20.0 / qblur=0.5 / ip_ratio=1.40 / aq=1:1.00
Language : English
Default : Yes
Forced : No

Audio #1
ID : 2
Format : AC-3
Format/Info : Audio Coding 3
Codec ID : A_AC3
Duration : 1 h 22 min
Bit rate mode : Constant
Bit rate : 192 kb/s
Channel(s) : 2 channels
Channel positions : Front: L R
Sampling rate : 48.0 kHz
Frame rate : 31.250 FPS (1536 SPF)
Bit depth : 16 bits
Compression mode : Lossy
Stream size : 113 MiB (2%)
Title : DVO HiWayGrope
Language : Russian
Service kind : Complete Main
Default : Yes
Forced : No

Audio #2
ID : 3
Format : DTS
Format/Info : Digital Theater Systems
Codec ID : A_DTS
Duration : 1 h 22 min
Bit rate mode : Constant
Bit rate : 1 509 kb/s
Channel(s) : 6 channels
Channel positions : Front: L C R, Side: L R, LFE
Sampling rate : 48.0 kHz
Frame rate : 93.750 FPS (512 SPF)
Bit depth : 24 bits
Compression mode : Lossy
Stream size : 891 MiB (13%)
Language : English
Default : No
Forced : No

Text
ID : 4
Format : UTF-8
Codec ID : S_TEXT/UTF8
Codec ID/Info : UTF-8 Plain Text
Duration : 1 h 22 min
Bit rate : 45 b/s
Count of elements : 984
Stream size : 27.6 KiB (0%)
Language : English
Default : No
Forced : No

Menu
00:00:00.000 : en:00:00:00.000
00:08:01.667 : en:00:08:01.667
00:14:33.542 : en:00:14:33.542
00:21:55.458 : en:00:21:55.458
00:27:42.875 : en:00:27:42.875
00:34:35.208 : en:00:34:35.208
00:40:47.417 : en:00:40:47.417
00:48:25.625 : en:00:48:25.625
00:55:29.000 : en:00:55:29.000
01:04:04.750 : en:01:04:04.750
01:14:31.917 : en:01:14:31.917
01:19:52.750 : en:01:19:52.750

piratbit777.ga



Скачать Каннибалы и установщики напольных покрытий через торрент http://a.radikal.ru/a25/1907/95/48cec7c37e5d.jpg Скачать фильм Каннибалы и установщики напольных покрытий через торрент бесплантно в хорошем качестве Описание: Группа рабочих по установке напольных покрытий отправляется на выполнение заказа в отдалённый особняк. По прибытии ремонтники ... 6.7 10 6
Торрент: Зарегистрирован [2019-07-31 03:26] · скачан: 39 раз
Статус: T временная
Размер: 6.66 GB
Как cкачать? Как скачать Каннибалы и установщики напольных покрытий через торрент | qTorrent

% Раздел Тема Автор DL S | L
T Фильмы 2017 (Звук TS, Cam, VO, DVO) [ 1.36 GB ] Каннибалы и установщики напольных покрытий / Cannibals and Carpet Fitters [2017 HDRip Любительский HiWayGrope] oleg8 Скачать
1 | 0


>> Регистрируемся здесь <<






Отзывы и комментарии о схеме читаем и пишем здесь: ---> Отзывы и комментарии о схеме

Новые благодарочки в телеграм довольных пользователей:
скриншот   скриншот   скриншот   скриншот   скриншот
    Дорогой пользователь! Огромная просьба, поблагодарите релизера, оцените раздачу и оставьте свои комментарий, если Вы скачали Каннибалы и установщики напольных покрытий через торрент бесплатно! Внесите свою лепту в развитие PiratBit!
    Комментировать посты могут только пользователи прошедшие не сложную регистрацию
    Показать сообщения:    

    Каннибалы и установщики напольных покрытий через торрент
    Скачать бесплатно Каннибалы и установщики напольных покрытий
    Каннибалы и установщики напольных покрытий скачать торрент
    Каннибалы и установщики напольных покрытий смотреть онлайн
    Cкачать фильм Каннибалы и установщики напольных покрытий бесплатно
    Каннибалы и установщики напольных покрытий скачать торрент в хорошем качестве
    Каннибалы и установщики напольных покрытий смотреть онлайн бесплатно в хорошем качестве


    Вы не можете начинать темы
    Вы не можете отвечать на сообщения
    Вы не можете редактировать свои сообщения
    Вы не можете удалять свои сообщения
    Вы не можете голосовать в опросах
    Вы не можете прикреплять файлы к сообщениям
    Вы можете скачивать файлы