iTunes

1+1

iTunes

мы

iTunes

1

iTunes

Чернобыль

1 сезон

Ральф против интернета

Лицензия

ПШазам

Лицензия

Игра престолов

Лицензия

30
pack

ВАЖНО

!!Акция!!

Alien_RageХит недели

RePack

Resident Evil 21

ИГРА 18+

pack

RePack

Metro:Exodus

!!Акция!!

Alien_Rage

RePack

fifa19

RePack

Assassins Creed: Odyssey

RePack

NEED FOR SPEED™ PAYBACK

3 сезон

9 сезон

Бесстыжие 9 сезон

Все сериалы

все сериалы на PB.wtf

RePack

FAR CRY 5
Ребята, катастрофически не хватает 7730р. для оплаты серверов за ИЮЛЬ (всвязи с блокировками трафик упал в 3 раза), 1-2р., выручайте.
  

Разочарование / Disenchantment / Сезон: 1 / Серии: 1-10 из 10 (Мэтт Грейнинг / Matt Groening) [2018, фэнтези, комедия, приключения, WEB-DLRip] [Dub] (Пифагор) piratbit777.ga

Разочарование через торрент piratbit777.ga

Размер: 5.67 GB | Добавлен: 13 д. назад | Торрент скачан:5 раз
Скачать  

08-08-2019 14:45 Разочарование Скачать торрент  

Разочарование / Disenchantment Производство: США, Netflix
Год выпуска: 2018
Жанр: мультфильм, фэнтези, комедия, приключения
Продолжительность: ~ 00:36:10
Перевод: Профессиональный (дублированный) Пифагор

Режиссер: Уэсли Арчер, Фрэнк Марино, David D. Au

Актеры: Эбби Джейкобсон, Нат Факсон, Эрик Андре, Джэйни Баттен, Мэтт Берри, Джон Ди Маджио, Ноэль Филдинг, Рич Фулчер, Дэвид Херман, Морис ЛаМарш.

Описание:
Действие разворачивается в Средневековье в королевстве Бинландия, где живёт юная принцесса-алкоголичка Бин. Отказавшись выходить замуж, Бин отправляется в путешествие по стране в компании эльфа и демона. По дороге трио встретит множество фантастических тварей и дураков людского происхождения.



Качество видео: WEB-DLRip
Формат: AVI
Видео: 704x400 (1.76:1), 23.976 fps, XviD build 73 ~1998 kbps avg, 0.30 bit/pixel
Аудио Rus: 48 kHz, AC3, 6 ch, ~384.00 kbps avg |Дубляж|
Аудио Eng: 48 kHz, AC3, 6 ch, ~384.00 kbps avg |Original|
Субтитры: русские форсированные, русские полные, английские
General
Complete name : H:\Disenchantment\s01e01_A.Princess.an.Elf.and.a.Demon.Walk.Into.a.Bar.avi
Format : AVI
Format/Info : Audio Video Interleave
File size : 720 MiB
Duration : 36mn 10s
Overall bit rate : 2 781 Kbps
Writing application : VirtualDubMod 1.5.10.3 | www.virtualdub-fr.org || (build 2550/release)
Writing library : VirtualDubMod build 2550/release

Video
ID : 0
Format : MPEG-4 Visual
Format profile : Advanced Simple@L5
Format settings, BVOP : 2
Format settings, QPel : No
Format settings, GMC : No warppoints
Format settings, Matrix : Custom
Codec ID : XVID
Codec ID/Hint : XviD
Duration : 36mn 10s
Bit rate : 2 000 Kbps
Width : 704 pixels
Height : 400 pixels
Display aspect ratio : 16:9
Frame rate : 23.976 (23976/1000) fps
Color space : YUV
Chroma subsampling : 4:2:0
Bit depth : 8 bits
Scan type : Progressive
Compression mode : Lossy
Bits/(Pixel*Frame) : 0.296
Stream size : 517 MiB (72%)
Writing library : XviD 73

Audio #1
ID : 1
Format : AC-3
Format/Info : Audio Coding 3
Mode extension : CM (complete main)
Format settings, Endianness : Big
Codec ID : 2000
Duration : 36mn 10s
Bit rate mode : Constant
Bit rate : 384 Kbps
Channel(s) : 6 channels
Channel positions : Front: L C R, Side: L R, LFE
Sampling rate : 48.0 KHz
Frame rate : 31.250 fps (1536 spf)
Compression mode : Lossy
Stream size : 99.4 MiB (14%)
Alignment : Split accross interleaves
Interleave, duration : 42 ms (1.00 video frame)
Interleave, preload duratio : 500 ms

Audio #2
ID : 2
Format : AC-3
Format/Info : Audio Coding 3
Mode extension : CM (complete main)
Format settings, Endianness : Big
Codec ID : 2000
Duration : 36mn 10s
Bit rate mode : Constant
Bit rate : 384 Kbps
Channel(s) : 6 channels
Channel positions : Front: L C R, Side: L R, LFE
Sampling rate : 48.0 KHz
Frame rate : 31.250 fps (1536 spf)
Compression mode : Lossy
Stream size : 99.4 MiB (14%)
Alignment : Split accross interleaves
Interleave, duration : 42 ms (1.00 video frame)
Interleave, preload duratio : 500 ms

скриншот  скриншот  скриншот  
Приятного просмотра!!!
piratbit777.ga



Скачать Разочарование через торрент http://i99.fastpic.ru/big/2018/0818/7a/7d54b60ef943ccf5045b75a40d4e6f7a.png Скачать фильм Разочарование через торрент бесплантно в хорошем качестве Описание:Действие разворачивается в Средневековье в королевстве Бинландия, где живёт юная принцесса-алкоголичка Бин. Отказавшись выходить ... 10 10 1
Торрент: Зарегистрирован [2019-08-08 14:45] · скачан: 5 раз
Статус: √ проверено
Размер: 5.67 GB
Как cкачать? Как скачать Разочарование через торрент | qTorrent

% Раздел Тема Автор DL S | L
Мультсериалы [ 6.69 GB ] Разочарование / Disenchantment / Сезон: 1 / Серии: 1-10 из 10 [2018 мультфильм WEBRip 720p] MVO [NewStudio] bober100 Скачать
1 | 0
Мультсериалы [ 6.67 GB ] Разочарование / Disenchantment / Сезон: 1 / Серии: 1-10 из 10 [2018 WEB-DL 720p] MVO [Jaskier] bober100 Скачать
1 | 0
Мультсериалы [ 3.75 GB ] Разочарование / Disenchantment / Сезон: 1 / Серии: 1-10 из 10 [2018 WEB-DLRip] MVO [Jaskier] bober100 Скачать
2 | 0
Мультсериалы [ 9.49 GB ] Разочарование / Disenchantment / Сезон: 1 / Серии: 1-10 из 10 [2018 Мультфильм WEBRip 1080p] MVO [ColdFilm] bober100 Скачать
1 | 0
Мультсериалы [ 5.5 GB ] Разочарование / Disenchantment / Сезон: 1 / Серии: 1-10 из 10 [2018 мультфильм WEB-DLRip] [MVO] killermax2013 Скачать
1 | 0


>> Регистрируемся здесь <<






Отзывы и комментарии о схеме читаем и пишем здесь: ---> Отзывы и комментарии о схеме

Новые благодарочки в телеграм довольных пользователей:
скриншот   скриншот   скриншот   скриншот   скриншот
    Дорогой пользователь! Огромная просьба, поблагодарите релизера, оцените раздачу и оставьте свои комментарий, если Вы скачали Разочарование через торрент бесплатно! Внесите свою лепту в развитие PiratBit!
    Комментировать посты могут только пользователи прошедшие не сложную регистрацию
    Показать сообщения:    

    Разочарование через торрент
    Скачать бесплатно Разочарование
    Разочарование скачать торрент
    Разочарование смотреть онлайн
    Cкачать фильм Разочарование бесплатно
    Разочарование скачать торрент в хорошем качестве
    Разочарование смотреть онлайн бесплатно в хорошем качестве


    Вы не можете начинать темы
    Вы не можете отвечать на сообщения
    Вы не можете редактировать свои сообщения
    Вы не можете удалять свои сообщения
    Вы не можете голосовать в опросах
    Вы не можете прикреплять файлы к сообщениям
    Вы можете скачивать файлы