iTunes

1+1

iTunes

мы

iTunes

1

iTunes

Чернобыль

1 сезон

Ральф против интернета

Лицензия

ПШазам

Лицензия

Игра престолов

Лицензия

30
pack

ВАЖНО

!!Акция!!

Alien_RageХит недели

RePack

Resident Evil 21

ИГРА 18+

pack

RePack

Metro:Exodus

!!Акция!!

Alien_Rage

RePack

fifa19

RePack

Assassins Creed: Odyssey

RePack

NEED FOR SPEED™ PAYBACK

3 сезон

9 сезон

Бесстыжие 9 сезон

Все сериалы

все сериалы на PB.wtf

RePack

FAR CRY 5
Ребята, катастрофически не хватает 7730р. для оплаты серверов за ИЮЛЬ (всвязи с блокировками трафик упал в 3 раза), 1-2р., выручайте.
  

Нуреев. Белый ворон / The White Crow (Рэйф Файнс) [2018 г., Драма, биография, BDRip 720p, Оригинальный] от ExKinoRay piratbit777.ga

Нуреев. Белый ворон через торрент piratbit777.ga

Раздают: 3 [ 31 KB/s ]
Размер: 7.57 GB | Добавлен: 7 д. назад | Торрент скачан:22 раза
Скачать  

12-08-2019 16:42 Нуреев. Белый ворон Скачать торрент  

Нуреев. Белый ворон / The White Crow
Год выпуска: 2018
Страна: Великобритания, Франция, Сербия
Жанр: Драма, биография
Продолжительность: 02:07:24
Перевод: Оригинальный
Субтитры: Русские (форс. - на английскую и французскую речь), английские

Режиссер: Рэйф Файнс

Премьера в мире: 31 августа 2018

rating

В ролях: Олег Ивенко, Рэйф Файнс, Чулпан Хаматова, Луис Хофманн, Адель Экзаркопулос, Сергей Полунин, Оливье Рабурден, Рафаэль Персонас, Зак Эйвери, Мар Содуп

Описание: Фильм является адаптацией биографической книги Джули Кавана. Лента повествует о зарубежных гастролях Рудольфа Нуреева вместе с труппой ленинградского Кировского театра в 1961 году. Параллельно развитию основной линии зрителю представляются воспоминания о более ранней жизни артиста: его рождение в вагоне Сибирской железной дороги, бедствия семьи в 1940-х годах, жизнь в Уфе, учёба в Ленинграде. Во время выступлений в Париже Рудольф Нуреев знакомится с местной театральной богемой и много времени проводит с новыми друзьями. Это категорически не нравится сопровождающим труппу кураторам КГБ. Нарастающее напряжение, угроза высылки в СССР приводит артиста к его знаменитому побегу на Запад.

Доп. информация: В фильме звучит русская, английская и французская речь.
В зависимости от обстоятельств и места действия
Иностранная речь русскими форсированными субтитрами

Качество: BDRip 720p
Формат: MKV
Видео кодек: MPEG4
Аудио кодек: DTS
Видео: MPEG-4 AVC, 7000 Кбит/с, 1280x690, 24.000 кадра/сек
Аудио#1: DTS, 6 ch, 1509 Кбит/с, 48 КГц
Релиз от:
x264 [info]: profile High, level 4.1
x264 [info]: frame I:1095 Avg QP:15.49 size:132716
x264 [info]: frame P:37065 Avg QP:17.75 size: 56156
x264 [info]: frame B:145302 Avg QP:19.45 size: 30641
-----
Общее
Уникальный идентификатор : 233559270023090405922201726122558823695 (0xAFB5E112C551EA88A5FAA861F8511D0F)
Полное имя : F:\ExKinoRayRips\White.Crow.2019.BDRip720p.ExKinoRay.mkv
Формат : Matroska
Версия формата : Version 2
Размер файла : 7,57 Гбайт
Продолжительность : 2 ч. 7 м.
Общий поток : 8501 Кбит/сек
Дата кодирования : UTC 2019-08-12 01:28:08
Программа кодирования : mkvmerge v7.8.0 ('River Man') 32bit built on Apr 3 2015 12:11:22
Библиотека кодирования : libebml v1.3.1 + libmatroska v1.4.2

Видео
Идентификатор : 1
Формат : AVC
Формат/Информация : Advanced Video Codec
Профиль формата : High@L4.1
Настройки формата : CABAC / 9 Ref Frames
Параметр CABAC формата : Да
Параметр RefFrames формата : 9 кадров
Идентификатор кодека : V_MPEG4/ISO/AVC
Продолжительность : 2 ч. 7 м.
Битрейт : 7000 Кбит/сек
Ширина : 1280 пикселей
Высота : 690 пикселей
Соотношение сторон : 1,85:1
Режим частоты кадров : Постоянный
Частота кадров : 24,000 кадра/сек
Цветовое пространство : YUV
Субдискретизация насыщенности : 4:2:0
Битовая глубина : 8 бит
Тип развёртки : Прогрессивная
Бит/(Пиксели*Кадры) : 0.330
Размер потока : 6,07 Гбайт (80%)
Библиотека кодирования : x264 core 152 r2851 ba24899
Настройки программы : cabac=1 / ref=9 / deblock=1:-3:-2 / analyse=0x3:0x113 / me=umh / subme=10 / psy=1 / psy_rd=1.00:0.10 / mixed_ref=1 / me_range=32 / chroma_me=1 / trellis=2 / 8x8dct=1 / cqm=0 / deadzone=21,11 / fast_pskip=0 / chroma_qp_offset=-3 / threads=6 / lookahead_threads=1 / sliced_threads=0 / nr=0 / decimate=0 / interlaced=0 / bluray_compat=0 / constrained_intra=0 / bframes=12 / b_pyramid=2 / b_adapt=2 / b_bias=0 / direct=3 / weightb=1 / open_gop=0 / weightp=2 / keyint=240 / keyint_min=24 / scenecut=40 / intra_refresh=0 / rc=2pass / mbtree=0 / bitrate=7000 / ratetol=1.0 / qcomp=0.60 / qpmin=0 / qpmax=69 / qpstep=4 / cplxblur=20.0 / qblur=0.5 / ip_ratio=1.40 / pb_ratio=1.30 / aq=3:1.00
Язык : English
Default : Да
Forced : Нет
Цветовой диапазон : Limited
Основные цвета : BT.709
Характеристики трансфера : BT.709
Коэффициенты матрицы : BT.709

Аудио
Идентификатор : 2
Формат : DTS
Формат/Информация : Digital Theater Systems
Идентификатор кодека : A_DTS
Продолжительность : 2 ч. 7 м.
Вид битрейта : Постоянный
Битрейт : 1509 Кбит/сек
Каналы : 6 каналов
Channel layout : C L R Ls Rs LFE
Частота : 48,0 КГц
Частота кадров : 93,750 кадра/сек (512 SPF)
Битовая глубина : 24 бит
Метод сжатия : С потерями
Размер потока : 1,34 Гбайт (18%)
Default : Да
Forced : Нет

Текст #1
Идентификатор : 3
Формат : UTF-8
Идентификатор кодека : S_TEXT/UTF8
Идентификатор кодека/Информация : UTF-8 Plain Text
Заголовок : fors
Язык : Russian
Default : Да
Forced : Нет

Текст #2
Идентификатор : 4
Формат : UTF-8
Идентификатор кодека : S_TEXT/UTF8
Идентификатор кодека/Информация : UTF-8 Plain Text
Язык : English
Default : Нет
Forced : Нет

Меню
00:00:00.000 : en:Chapter 1
00:09:11.458 : en:Chapter 2
00:20:10.833 : en:Chapter 3
00:32:14.167 : en:Chapter 4
00:41:56.542 : en:Chapter 5
00:53:29.542 : en:Chapter 6
01:03:05.167 : en:Chapter 7
01:16:09.625 : en:Chapter 8
01:22:36.583 : en:Chapter 9
01:31:48.375 : en:Chapter 10
01:54:54.500 : en:Chapter 11
01:58:29.792 : en:Chapter 12

piratbit777.ga



Скачать Нуреев. Белый ворон через торрент http://a.radikal.ru/a38/1908/4e/032e03881fac.jpg Скачать фильм Нуреев. Белый ворон через торрент бесплантно в хорошем качестве Описание: Фильм является адаптацией биографической книги Джули Кавана. Лента повествует о зарубежных гастролях Рудольфа Нуреева вместе с ... 10 10 1
Торрент: Зарегистрирован [2019-08-12 16:42] · скачан: 22 раз
Статус: √ проверено
Размер: 7.57 GB
Как cкачать? Как скачать Нуреев. Белый ворон через торрент | qTorrent


>> Регистрируемся здесь <<






Отзывы и комментарии о схеме читаем и пишем здесь: ---> Отзывы и комментарии о схеме

Новые благодарочки в телеграм довольных пользователей:
скриншот   скриншот   скриншот   скриншот   скриншот

12-08-2019 18:13 Нуреев. Белый ворон Скачать торрент  

Топик был перенесен из форума Оформление раздач (Кино, Видео и ТВ) в форум Фильмы [HD 720p, 1080p] (Хороший звук DUB, MVO)


bober100piratbit777.ga



    Дорогой пользователь! Огромная просьба, поблагодарите релизера, оцените раздачу и оставьте свои комментарий, если Вы скачали Нуреев. Белый ворон через торрент бесплатно! Внесите свою лепту в развитие PiratBit!
    Комментировать посты могут только пользователи прошедшие не сложную регистрацию
    Показать сообщения:    

    Нуреев. Белый ворон через торрент
    Скачать бесплатно Нуреев. Белый ворон
    Нуреев. Белый ворон скачать торрент
    Нуреев. Белый ворон смотреть онлайн
    Cкачать фильм Нуреев. Белый ворон бесплатно
    Нуреев. Белый ворон скачать торрент в хорошем качестве
    Нуреев. Белый ворон смотреть онлайн бесплатно в хорошем качестве


    Вы не можете начинать темы
    Вы не можете отвечать на сообщения
    Вы не можете редактировать свои сообщения
    Вы не можете удалять свои сообщения
    Вы не можете голосовать в опросах
    Вы не можете прикреплять файлы к сообщениям
    Вы можете скачивать файлы