iTunes

1+1

iTunes

мы

iTunes

1

iTunes

Чернобыль

iTunes

Ральф против интернета

Лицензия

ПШазам

Лицензия

Игра престолов

Лицензия

30
pack

ВАЖНО

!!Акция!!

Alien_RageХит недели

RePack

Resident Evil 21

ИГРА 18+

pack

RePack

Metro:Exodus

!!Акция!!

Alien_Rage

RePack

fifa19

RePack

Assassins Creed: Odyssey

RePack

NEED FOR SPEED™ PAYBACK

3 сезон

9 сезон

Бесстыжие 9 сезон

Все сериалы

все сериалы на PB.wtf

RePack

FAR CRY 5
Ребята, катастрофически не хватает 7730р. для оплаты серверов за ИЮЛЬ (всвязи с блокировками трафик упал в 3 раза), 1-2р., выручайте.
  

Контакт / Сезон: 1 / Серии: 1-12 из 12 (Михаил Баркан) [2018, Детектив, WEB-DL 720p] piratbit777.ga

Контакт через торрент piratbit777.ga

Раздают: 5 [ 575 KB/s ]
Размер: 8.09 GB | Добавлен: 8 д. назад | Торрент скачан:40 раз
Скачать  

13-08-2019 23:42 Контакт Скачать торрент  

КонтактГод выпуска: 2018
Страна: Россия, Украина
Жанр: Детектив
Продолжительность: ~ 00:45:00
Перевод: Не требуется
Субтитры: отсутствуют

Режиссер: Михаил Баркан



В ролях: Павел Баршак, Матвей Зубалевич, Екатерина Маликова, Сергей Колос, Александр Семчев, Анна Сагайдачная, Владимир Гладкий, Михаил Жонин, Константин Косинский, Ольга Вивчарюк, Неонила Белецкая, Виталий Салий, Андрей Смирнов, Николай Боклан, Виктор Сарайкин, Нина Антонова, Галина Корнеева, Сергей Деревянко, Алексей Череватенко, Дато Роинишвили

Описание: Спецслужбы проводят взрывные работы на участке, где зафиксированы магнитные аномалии. Совершенно случайно в зоне взрыва оказываются три человека: преступник Владимир Голенко, фотохудожник Олег Малинин и неудачливый писатель Венедикт Тартаковский. В результате взрыва между этими людьми возникает странная связь – фотограф Малинин может читать мысли преступника Голенко, и даже видеть окружающий мир его глазами, а писатель Тартаковский может полностью управлять действиями Голенко и при этом общаться с Малининым на расстоянии. Тартаковский, получив в свое полное распоряжение преступника Голенко, решает его руками отомстить всем, кто мешал ему в жизни. Город захлестывает череда кровавых преступлений. Малинин, понимая, что его «видения» реальны, обращается в полицию, но там его сначала подозревают в соучастии в преступлениях, а потом отправляют в психиатрическую клинику. Чтобы остановить преступников Малинину приходится бежать из клиники, скрываться от полиции, пытаться вести самостоятельное расследование. Но чем ближе он подбирается к убийце, тем изощрённее становятся преступления, планируемые Тартаковским…

Качество: WEB-DL 720p
Формат: MKV

Видео: 1280x720, (16:9), 25 fps, AVC MPEG-4 (x264), High@L3.1 ~ 1760 kbps , 0.076 bit/pixel
Аудио: 48 kHz, AC3 Dolby Digital, 2/0 (L,R) ch, ~ 192 kbps
скриншот  скриншот  скриншот  скриншот  скриншот  

Общее
Уникальный идентификатор : 14885954446949614221145980030627752669 (0xB32EE3800683F8A13E9402277F22ADD)
Полное имя : C:\Контакт.(2018).WEB-DL (720p).by.Nicodem.Files-x\01.Контакт.(2018).WEB-DL (720p).by.Nicodem.Files-x.mkv
Формат : Matroska
Версия формата : Version 4
Размер файла : 680 Мбайт
Продолжительность : 47 м. 42 с.
Общий поток : 1991 Кбит/сек
Программа кодирования : Lavf56.36.100
Библиотека кодирования : Lavf56.36.100

Видео
Идентификатор : 1
Формат : AVC
Формат/Информация : Advanced Video Codec
Профиль формата : High@L3.1
Настройки формата : CABAC / 3 Ref Frames
Параметр CABAC формата : Да
Параметр RefFrames формата : 3 кадра
Идентификатор кодека : V_MPEG4/ISO/AVC
Продолжительность : 47 м. 42 с.
Битрейт : 1760 Кбит/сек
Ширина : 1280 пикселей
Высота : 720 пикселей
Соотношение сторон : 16:9
Режим частоты кадров : Постоянный
Частота кадров : 25,000 кадров/сек
Цветовое пространство : YUV
Субдискретизация насыщенности : 4:2:0
Битовая глубина : 8 бит
Тип развёртки : Прогрессивная
Бит/(Пиксели*Кадры) : 0.076
Размер потока : 601 Мбайт (88%)
Default : Да
Forced : Нет

Аудио
Идентификатор : 2
Формат : AC-3
Формат/Информация : Audio Coding 3
Коммерческое название : Dolby Digital
Идентификатор кодека : A_AC3
Продолжительность : 47 м. 42 с.
Вид битрейта : Постоянный
Битрейт : 192 Кбит/сек
Каналы : 2 канала
ChannelLayout : L R
Частота : 48,0 КГц
Частота кадров : 31,250 кадров/сек (1536 SPF)
Битовая глубина : 16 бит
Метод сжатия : С потерями
Размер потока : 65,5 Мбайт (10%)
Язык : unknown
ServiceKind/String : Complete Main
Default : Да
Forced : Нет

Внимание! Раздача ведётся путём добавления новых серий; при каждом добавлении создаётся новый торрент.
Чтобы начать докачку новой серии, пользователям необходимо сделать следующее:
1. Остановить скачивание;
2. Удалить старый торрент у себя из клиента (старые серии удалять не надо);
3. Скачать новый торрент и запустить его у себя в клиенте вместо старого, при этом указать клиенту путь в старую папку куда и должно происходить скачивание новых серий. Ваш клиент при этом должен произвести хеширование (проверку) старой папки и будет докачивать только те серии, которых у вас ещё нет. Старые серии при этом не удаляются, а продолжают раздаваться! Eсли вы уже удалили старые серии, то предотвратить повторную закачку старых серий можно, отжав галочку в соответствующих местах при запуске нового торрента.
piratbit777.ga



Скачать Контакт через торрент https://img16.lostpic.net/2019/08/13/903497d2613621a6b62aaa185b39f439.jpg Скачать фильм Контакт через торрент бесплантно в хорошем качестве Описание: Спецслужбы проводят взрывные работы на участке, где зафиксированы магнитные аномалии. Совершенно случайно в зоне взрыва ... 10 10 5
Торрент: Зарегистрирован [2019-08-16 11:56] · скачан: 40 раз
Статус: √ проверено
Размер: 8.09 GB
Как cкачать? Как скачать Контакт через торрент | qTorrent

% Раздел Тема Автор DL S | L
Наши сериалы [ 7.03 GB ] Контакт / Сезон: 1 / Серии: 1-12 из 12 [2018 WEB-DLRip-AVC] bober100 Скачать
7 | 0
Наши сериалы [ 7.29 GB ] Контакт / Сезон: 1 / Серии: 1-12 из 12 [2018 WEB-DLRip-AVC] bober100 Скачать
3 | 0
Наши сериалы [ 21.47 GB ] Контакт / Сезон: 1 / Серии: 1-12 из 12 [2018 WEB-DL 1080p] bober100 Скачать
7 | 0
Наши сериалы [ 7.03 GB ] Контакт / Сезон: 1 / Серии: 1-12 из 12 [2018 WEB-DLRip] bober100 Скачать
12 | 0


>> Регистрируемся здесь <<






Отзывы и комментарии о схеме читаем и пишем здесь: ---> Отзывы и комментарии о схеме

Новые благодарочки в телеграм довольных пользователей:
скриншот   скриншот   скриншот   скриншот   скриншот
    Дорогой пользователь! Огромная просьба, поблагодарите релизера, оцените раздачу и оставьте свои комментарий, если Вы скачали Контакт через торрент бесплатно! Внесите свою лепту в развитие PiratBit!
    Комментировать посты могут только пользователи прошедшие не сложную регистрацию
    Показать сообщения:    

    Контакт через торрент
    Скачать бесплатно Контакт
    Контакт скачать торрент
    Контакт смотреть онлайн
    Cкачать фильм Контакт бесплатно
    Контакт скачать торрент в хорошем качестве
    Контакт смотреть онлайн бесплатно в хорошем качестве


    Вы не можете начинать темы
    Вы не можете отвечать на сообщения
    Вы не можете редактировать свои сообщения
    Вы не можете удалять свои сообщения
    Вы не можете голосовать в опросах
    Вы не можете прикреплять файлы к сообщениям
    Вы можете скачивать файлы